lo stagista inaspettato streaming videoweed

 

 

 

 

Lo stagista inaspettato (The Intern) - Film Commedia di Nancy Meyers. USA, 2015 durata 121 min. Consigli per la visione Film per tutti.NOLEGGIA streaming. ACQUISTA download. The Intern streaming ITA. Attori: Robert De Niro, Anne Hathaway, Drena De Niro, Nat Wolff, Rene Russo, Adam DeVine, Reid Scott, Andrew Rannells, Linda Lavin.Lo stagista inaspettato (2015) Altadefinizione gratis senza registrazione - Vi consigliamo di guardare [STREAMING] Lo stagista inaspettato (FILM ITA 2015), streaming download Lo stagista inaspettato (film ita 2015).Torrent, The Pirate Bay (2015), Lo stagista inaspettato Download (2015) putlocker italy, Lo stagista inaspettato VideoWeed Senza Limiti, (2015) Lo stagista Lo stagista inaspettato. Il film diretto da Nancy Meyers la storia di Ben, un settantenne ormai in pensione con un sacco di tempo libero a disposizione.Guarda il Film in Streaming 1080p. Lo stagista inaspettato. Jules Osten, fondatrice di una sito sulla moda, si impegna in un programma di sensibilizzazione rivolto ai senior della sua compagnia. A lei come stagista viene assegnato il settantenne vedovo Ben Benvenuti, guarda in alta definizione Lo stagista inaspettato in streaming. Una societ startup di Brooklyn che vende on line articoli di abbigliamento, avvia una campagna di assunzione di stagisti senior alla quale risponde Ben Whittaker Lo stagista inaspettato (2015). Categorie: Al cinema. In streaming e download gratis. Clicca su "Show" per visualizzare la scheda completa del film.

Per poter vedere Lo stagista inaspettato streaming ITA possibile utilizzare servizi come Netflix, pay per view, utilizzare programmi come emule o torrent o Vedere nei cinema. Lo stagista inaspettato (The Intern) un film del 2015 scritto e diretto da Nancy Meyers, con protagonisti Robert De Niro e Anne Hathaway. Una societ di moda assume come stagista Ben Whittaker, un settantenne annoiato dalla sua vita di pensionato. Search Results For: streaming ita lo stagista inaspettato.Lo Stagista Inaspettato 2015 Filmtv It. Streaming Pagina 9 Di 46 Notizie It. Lo stagista inaspettato [HD]. Guarda ora Scarica. Streaming. Download. Continua con il video. 7.2. Lo stagista inaspettato. - Regia: Nancy Meyers - Cast: Robert De Niro, Anne Hathaway, Rene Russo, Anders Holm. COMMEDIA 121.Streaming di oggi.

Lo stagista inaspettato. HD ITA. scegli la risoluzione. 1080PHD. scegli il player video.Lo stagista inaspettato streaming altadefinizione Genere: Commedia / Prossimamente al Cinema. Regia: Nancy Meyers. Il film Lo stagista inaspettato stato prodotto negli Stati Uniti questanno la pellicola cinematografica diretta da Nancy Meyers. Tra gli interpreti principali del lungometraggio ricordiamo: Robert De Niro, Anne Hathaway, Rene Russo, Anders Holm, JoJo Kushner e altri ancora. Lo stagista inaspettato [HD]. Guarda ora Scarica. Streaming. Download. Continua con il video. 7.2. La commedia intitolata Lo stagista inaspettato Streaming del 2015 in Italiano racconta la storia di un uomo che si chiama Ben Whittaker - un pensionato di 70 anni che ha perso la moglie anni fa.

La sua vita e molto tranquilla, anche un po troppo, dato che adesso non lavora. Genere: commedia. Una societ di moda assume uno stagista decisamente fuori dagli schemi: Ben Whittaker (Robert De Niro) un settantenne pensionato che ha scoperto che in fondo la pensione non come immaginava e decide cos di sfruttare la prima occasione utile per rimettersi in pista. A lei come stagista viene assegnato il settantenne vedovo Ben Whittaker. Quello che inizia come uno scontro tra il vecchio mondo degli affari e il nuovoStreaming HD: Speedvideo Openload. Download: Backin Rapidgator Datafile Nitroflare (Parte 1 Parte 2) Nowdownload (Parte 1 Parte 2) Openload Info » Streaming: Abysstream Backin Nowvideo Openload Streaming HD: Akvideo.HOME-FILM » (Commedia del 2015), (L del 2015), (L), -Download, -Streaming, 2015, Commedia, Commedia HD, Usa, y HD 720p, z HD » Lo stagista inaspettato [HD] (2015). A lei come stagista viene assegnato il settantenne vedovo Ben Whittaker. KeywordsBrigsby (2017) streaming. BDRip. Belli e dannati (1991) streaming. HD720. Lo scroccone e il ladro (2001) streaming. DVDRip. Color space : YUV Chroma subsampling : 4:2:0 Bit depth : 8 bits Scan type : Progressive Bits/(PixelFrame) : 0.210 Stream size : 3.85 GiB (94) Writing library : x264 core 146 r2538 121396c EncodingItalian Default : Yes Forced : No. screenshots BDRip: Lo Stagista Inaspettato (2015). Nonostante le diffidenze iniziali, Ben dimostrer alla fondatrice della compagnia (Anne Hathaway) di essere una valida risorsa per lazienda e tra i due nascer un inaspettata sintonia.Lo stagista inaspettato. Titolo originale. The Intern. Ben, pensionato settantenne e vedovo, le ha provate tutte per ingannare il tempo, ma non riesce a Film streaming in altadefinizione. Play. 7.1. Lo stagista inaspettato.A lei come stagista viene assegnato il settantenne vedovo Ben Whittaker film senza limiti, Download Lo stagista inaspettato Film Completo Gratis Lo stagista inaspettato Streaming ITA Film Pieno in HD Risoluzione 1080p[/quote]. BitTorrent Comment: 10/10 (4) lo stagista inaspettato download Lo stagista inaspettato Streaming ITA Gratis | Altadefinizione altadefinizione.live/ streaming-film/309-leastTranslate this page Cerca il tuo film: September 2015 121 minutes. Una societ di moda assume uno stagista decisamente fuori dagli schemi: Ben Whittaker (Robert De Niro) un settantenne pensionato che ha scoperto che in fondo la pensione non come immaginava e lo stagista inaspettato - ShareDir.com lets you search and download files without limits from various file sharing and hosting sites like Rapidgator, Depositfiles, Uploaded, Nitroflare, Keep2Share.Source title: Lo stagista inaspettato (2015) Streaming. Jules un control freak perfezionista, incapace di rimanere con le mani in mano, ma la sua vita privata ne risente intanto la sua iniziale diffidenza verso Ben si tramuta gradualmente in rispetto e ammirazione. [ STREAMING] Lo stagista inaspettato (FILM ITA 2015) Воспроизвести все. Lo stagista inaspettato. Warner Bros.Lo stagista Inaspettato - Lesperienza non invecchia mai - Pod dal film. Nonostante le diffidenze iniziali, Ben dimostrer alla fondatrice della compagnia (Anne Hathaway) di essere una valida risorsa per lazienda e tra i due nascer un inaspettata sintonia. Lo stagista inaspettato Streaming ITA HD. Watch lo stagista inaspettato streams online. Click for organised searchterms hoster selection.Lo stagista inaspettato [HD] (2015) - Film Streaming in HD. Search Results For: Tag/streaming Ita Lo Stagista Inaspettato. Nothing Found. Direttore: Nancy Meyers. Guardare Lo stagista inaspettato Film Streaming Online.Lo stagista inaspettato Review. Emmi Axelsson Sweden. I would only recommend seeing this movie if a person has nothing else to do that day. Prossimamente in streaming, commedia. Director: Nancy Meyers. Starring: Anne Hathaway, Robert De Niro, Rene Russo and others. Nonostante le diffidenze iniziali, Ben dimostrer alla fondatrice della compagnia (Anne Hathaway) di essere una valida risorsa per lazienda e tra i due nascer un inaspettata sintonia. Direttore: Nancy Meyers. Guardare Lo stagista inaspettato Film Streaming Online. Commedia. Director: Nancy Meyers. Starring: Robert De Niro, Anne Hathaway, Drena De Niro and others. Lo stagista inaspettato. MARTEDI 16 GENNAIO ALLE 21.10 - Robert De Niro e Anne Hathaway in una commedia ironica e frizzante che racconta la storia di Ben, uno stagista decisamente fuori dagli schemi HD. Ad 600. Lo stagista inaspettato. Sep. ilgeniodellostreaming.org il primo sito web italiano dedicato allo streaming di Film e Serie TV aggiornato 24/7. Questo portale stato realizzato in modo da offrire tutto il piacere di un film senza pubblicit esagerate ed opprimenti. Sei tutto quello che voglio Streaming ITA. Lo stagista inaspettato (2015) Streaming Altadefinizione. Mentre langelo venuto a prelevare la sua anima, fa di tutto per poterlo portar via, Massimo trova degli stratagemmi per poter portare a compimento la sorpresa che aveva preparatoiniziali, Ben dimostrer alla fondatrice della compagnia (Anne Hathaway) di essere una valida risorsa per lazienda e tra i due nascer un inaspettatainaspettato 2015 full movie online streaming Lo stagista inaspettato 2015 streaming download Lo stagista inaspettato watch Lo stagista Lo stagista inaspettato (2015) Streaming. The Intern streaming ITA. HDRip.If you want you can cancel mining. Back to Host. Film Lo stagista inaspettato (2015) Streaming Cineblog01 - Filmati correlati SerieTV Streaming. Nuove uscite. SUB-ITA.Lo stagista inaspettato (2015) IMDB: 7.2. HD. Condividi. Lo stagista inaspettato [HD]. Guarda ora Scarica.Quello che inizia come uno scontro tra il vecchio mondo degli affari e il nuovo si trasforma presto in qualcosaltro, lasciando che Ben da stagista diventi una sorta di mentore per Jules. Lo stagista inaspettato (2015) Streaming. The Intern.Nonostante le diffidenze iniziali, Ben dimostrer alla fondatrice della compagnia (Anne Hathaway) di essere una valida risorsa per lazienda e tra i due nascer un inaspettata sintonia. Una societ di moda assume uno stagista decisamente fuori dagli schemi: Ben Whittaker (Robert De Niro) un settantenne pensionato che ha scoperto che in fondo la pensione non come immaginava e decide cos di sfruttare la prima Lo Stagista Inaspettato - Lesperienza Non Invecchia Mai - Pod Dal Film.Lo Stagista Inaspettato - Nuovo Trailer Ufficiale | HD. Updated : 2015-09-11 20:07:24. Leave Your Comment. Chroma subsampling : 4:2:0 Bit depth : 8 bits Scan type : Progressive Bits/(PixelFrame) : 0.256 Stream size : 1.46 GiB (71) Writing library : x264 core 142 r2479 dd79a61 Encoding settingswww.nitroflare.com/view/C081D39CCBA23BC/Lo.stagista.inaspettato.2015.ita.BDRip.part3.rar http Film Streaming » Dramatico » Lo stagista inaspettato (2015).Film in Streaming Gratis in Italiano, da vedere online HD. Guarda i film del cinema sul tuo PC, iPad, iPhone, Smart TV gratis, film in streaming senza registrazione. Film Senza Limiti » Film » Commedia » Lo stagista inaspettato. Trama. Una societ di moda assume uno stagista decisamente fuori dagli schemi: Ben Whittaker (Robert De Niro)

related:


 

Leave a reply

 

Copyright © 2018.